The Girl In The Spiders Web (2018) HDRip Hindi (Cleaned ) + Dual Audio 720p ESubs - 900 MB

MEDIA INFO - DETAILED

MEDIA INFO - DETAILED

Format : Matroska
Format version : Version 4
File size : 896 MiB
Duration : 1 h 55 min
Overall bit rate : 1 085 kb/s
Encoded date : UTC 2019-01-20 06:39:07 / UTC
Writing application : mkvmerge v28.1.0 (‘Morning Child’) 64-bit
Writing library : libebml v1.3.6 + libmatroska v1.4.9 / Lavf55.12.0

Video
ID : 1
Format : AVC
Format/Info : Advanced Video Codec
Format profile : [email protected]
Format settings : CABAC / 8 Ref Frames
Format settings, CABAC : Yes
Format settings, RefFrames : 8 frames
Codec ID : V_MPEG4/ISO/AVC
Duration : 1 h 55 min
Bit rate : 900 kb/s
Width : 1 280 pixels
Height : 530 pixels
Display aspect ratio : 2.40:1
Frame rate mode : Constant
Frame rate : 23.976 (24000/1001) FPS
Color space : YUV
Chroma subsampling : 4:2:0
Bit depth : 8 bits
Scan type : Progressive
Bits/(Pixel*Frame) : 0.055
Stream size : 736 MiB (82%)
Writing library : x264 core 142 r2479 dd79a61
Default : Yes
Forced : No
Color range : Limited
Color primaries : BT.709
Transfer characteristics : BT.709
Matrix coefficients : BT.709

Audio #1
ID : 2
Format : AAC LC SBR
Format/Info : Advanced Audio Codec Low Complexity with Spectral Band Replication
Commercial name : HE-AAC
Format settings : NBC
Codec ID : A_AAC-5
Duration : 1 h 55 min
Bit rate : 96.0 kb/s
Channel(s) : 2 channels
Channel layout : L R
Sampling rate : 22.05 kHz
Frame rate : 10.767 FPS (2048 SPF)
Compression mode : Lossy
Delay relative to video : -229 ms
Stream size : 79.2 MiB (9%)
Language : Hindi
Default : Yes
Forced : No

Audio #2
ID : 3
Format : AAC LC SBR
Format/Info : Advanced Audio Codec Low Complexity with Spectral Band Replication
Commercial name : HE-AAC
Format settings : NBC
Codec ID : A_AAC-5
Duration : 1 h 55 min
Bit rate : 96.0 kb/s
Channel(s) : 2 channels
Channel layout : L R
Sampling rate : 48.0 kHz
Frame rate : 23.438 FPS (2048 SPF)
Compression mode : Lossy
Delay relative to video : -105 ms
Stream size : 79.2 MiB (9%)
Language : English
Default : No
Forced : No

Text
ID : 4
Format : ASS
Codec ID : S_TEXT/ASS
Codec ID/Info : Advanced Sub Station Alpha
Duration : 1 h 46 min
Bit rate : 44 b/s
Count of elements : 695
Compression mode : Lossless
Stream size : 34.5 KiB (0%)
Language : English
Default : Yes
Forced : No

Menu
00:00:00.000 : :1
00:10:24.040 : :2
00:16:32.908 : :3
00:21:05.556 : :4
00:27:34.569 : :5
00:34:20.099 : :6
00:41:41.123 : :7
00:48:24.359 : :8
00:58:39.265 : :9
01:05:56.953 : :10
01:10:32.102 : :11
01:20:04.007 : :12
01:27:18.983 : :13
01:35:05.616 : :14
01:38:04.211 : :15
01:43:16.648 : :16









 

Download From Server 1

Download From Server 2

Download From Server 3

Leave a Reply

Your email address will not be published. Required fields are marked *

Check Also

Fifty Shades Darker (2017) BluRay 1080p UNRATED [Hindi 5.1 + English] Dual Audio x264 ESubs – 2.3 GB

Fifty Shades Darker (2017) BluRay 1080p UNRATED [Hindi 5.1 + English] Dual-Audio x264 ESub…