Sigai 2019 Full Movie Download In Tamil 720p HD Quality Encoded In x264 MKV.

Sigai Movie Free Download 720p HD Tamil 2019

Details Of Full Length Free Videos

Title: Sigai (2019) Tamil
Genres: Thriller
Language: Tamil
Release Date: 9 January 2019
Quality: 720p HD x264
Format: MKV
Size: 541-MB

IMDb | ZEE5

Storyline

Kathir plays a guy who has come to India after studying abroad. His character has different shades, of which the feminine side is the highlight. There is a social message in the film, too.

Sigai (English: Hair) is a 2019 Tamil drama film directed by Jagadeesan Subu. The movie has Kathir in the lead role. The movie is set in Anna Nagar and depicts events that happen in one day.

Cast

  • Kathir as Mathivanan
  • Meera Nair as Nirmala
  • Raj Barath as Prasath
  • Riythvika as Buvana
  • Mayilsamy as Subramani
  • Rajesh Sarma as Chetta
  • Mal Marosa as Santhosh
  • Brila Boss as Prem
  • Vishalini as Prem’s spouse
  • Muthukumar as Manager
  • Kani Venkatesh as suspect

MKV File Details

MKV File Details

Format : Matroska
Format version : Version 4 / Version 2
File size : 542 MiB
Duration : 1 h 35 min
Overall bit rate : 797 kb/s
Movie name : Sigai 2019

Video
Format : AVC
Codec ID : V_MPEG4/ISO/AVC
Duration : 1 h 35 min
Bit rate : 699 kb/s
Width : 1 280 pixels
Height : 544 pixels
Display aspect ratio : 2.35:1
Frame rate mode : Constant
Frame rate : 25.000 FPS
Color space : YUV
Chroma subsampling : 4:2:0
Bit depth : 8 bits
Scan type : Progressive
Bits/(Pixel*Frame) : 0.040
Stream size : 475 MiB (88%)
Writing library : x264 core 155 r2901 7d0ff22

Audio
Format : AAC
Duration : 1 h 35 min
Bit rate : 96.0 kb/s
Channel(s) : 2 channels
Channel positions : Front: L R
Sampling rate : 48.0 kHz
Frame rate : 46.875 FPS (1024 SPF)
Compression mode : Lossy
Delay relative to video : -21 ms
Stream size : 65.3 MiB (12%)
Language : Tamil

Images, Screenshots Of Full Episodes

Some Images Of Sigai 2019 Tamil Movie 720p HD x264.

Sigai Movie Free Download 720p HD Tamil 2019

Sigai Movie Free Download 720p HD Tamil 2019

Sigai Movie Free Download 720p HD Tamil 2019

Sigai Movie Free Download 720p HD Tamil 2019

Watch The Full HD 720p, 1080p Movie Trailers

Watch Sigai 2019 Full Movie HD Trailer

Direct Download Links Of Sigai 2019 Full Movie Tamil 720p HD Given Below

Free Download Direct Links HD

Direct Links For Premium Users

If you are the member of this site then enter your login details and Enjoy Direct Links

Leave a Reply

Your email address will not be published. Required fields are marked *

Check Also

The Choice Season 1 [ULLU] – Complete

The Choice Ullu Web Series 2019 Season 1 All Episodes Free Download In 720p WEB-Dl Quality…