Deadpool 2 Hindi Dubbed Super Duper Cut UNRATED Full Movie Download 720p BluRay HD Quality Encoded In x264 With English Subtitles.

Deadpool 2 Dual Audio [Hindi+English] 720p BluRay Movie Download

Details Of Full Length Free Videos

Title: Deadpool 2 (2018)
Genres: Action | Adventure | Comedy | Sci-Fi
Country: USA
Language: Hindi | English
Release Date: 18 May 2018
Quality: 720p BluRay x264
Audio: DD 5.1CH
Subtitles: English
Format: MKV
Size: 1.3-GB

IMDb

Storyline

After losing Vanessa (Morena Baccarin), the love of his life, 4th-wall breaking mercenary Wade Wilson aka Deadpool (Ryan Reynolds) must assemble a team and protect a young, The Deadpool 2 Hindi Dubbed Movie full-figured mutant Russell Collins aka Firefist (Julian Dennison) from Cable (Josh Brolin), a no-nonsense, dangerous cyborg from the future, and must also learn the most important lesson of all: to be part of a family again.

About

Deadpool 2 Hindi Dubbed Movie Full Hd is a 2018 American superhero film based on the Marvel Comics character Deadpool, distributed by 20th Century Fox. It is the eleventh installment in the X-Men film series, and a direct sequel to the 2016 film Deadpool. The film is directed by David Leitch from a script by Rhett Reese, Paul Wernick, and Ryan Reynolds. Reynolds stars in the title role alongside Josh Brolin, Morena Baccarin, Julian Dennison, Zazie Beetz, T.J. Miller, Brianna Hildebrand, and Jack Kesy. Deadpool 2 Super Duper Cut Subtitles In the film, Deadpool forms the X-Force to protect a young mutant from the time-traveling soldier Cable.

Deadpool 2 Super Duper Extended Cut was released in the United States on May 18, 2018. It has grossed over $743 million worldwide, becoming the ninth highest-grossing film of 2018, as well as the third highest-grossing R-rated film and the third highest-grossing X-Men film. It received mostly positive reviews from critics, who praised its humor, acting (particularly Reynolds, Brolin, and Beetz’s performances), story, and action sequences with some critics calling it better than the first film, while others criticized the film’s tone and script. A PG-13 version of the film, titled Once Upon a Deadpool, was released on December 12, 2018 Deadpool 2 Dual Audio Original Hindi 720p Hd Bluray Download.

MKV File Details

MKV File Details

General
Format : Matroska
Format version : Version 4 / Version 2
File size : 1.29 GiB
Duration : 2 h 13 min
Overall bit rate : 1 378 kb/s

Video
ID : 1
Format : AVC
Format/Info : Advanced Video Codec
Format profile : [email protected]
Format settings : CABAC / 4 Ref Frames
Format settings, CABAC : Yes
Format settings, RefFrames : 4 frames
Codec ID : V_MPEG4/ISO/AVC
Duration : 2 h 13 min
Bit rate : 1 050 kb/s
Width : 1 280 pixels
Height : 534 pixels
Display aspect ratio : 2.40:1
Original display aspect ratio : 2.40:1
Frame rate mode : Constant
Frame rate : 23.976 (24000/1001) FPS
Color space : YUV
Chroma subsampling : 4:2:0
Bit depth : 8 bits
Scan type : Progressive
Bits/(Pixel*Frame) : 0.064
Stream size : 1 006 MiB (76%)
Writing library : x264 core 155
Default : Yes
Forced : No

Audio #1
ID : 4  Deadpool 2 Hindi Bluray 720p Download
Format : AC-3
Format/Info : Audio Coding 3
Codec ID : A_AC3
Duration : 2 h 13 min
Bit rate mode : Constant
Bit rate : 224 kb/s
Channel(s) : 6 channels
Channel positions : Front: L C R, Side: L R, LFE
Sampling rate : 48.0 kHz
Frame rate : 31.250 FPS (1536 SPF)
Bit depth : 16 bits
Compression mode : Lossy
Stream size : 215 MiB (16%)
Language : Hindi
Service kind : Complete Main
Default : Yes
Forced : No

Audio #2
ID : 5
Format : AAC
Format/Info : Advanced Audio Codec
Format profile : LC
Codec ID : A_AAC-2
Duration : 2 h 13 min
Bit rate : 96.0 kb/s
Channel(s) : 2 channels
Channel positions : Front: L R
Sampling rate : 48.0 kHz
Frame rate : 46.875 FPS (1024 SPF)
Compression mode : Lossy
Stream size : 92.0 MiB (7%)
Language : English
Default : No
Forced : No

Text #1
ID : 2
Format : UTF-8
Codec ID : S_TEXT/UTF8
Codec ID/Info : UTF-8 Plain Text
Duration : 2 h 11 min
Bit rate : 64 b/s
Count of elements : 2131
Stream size : 61.9 KiB (0%)
Language : English
Default : Yes
Forced : No

Text #2
ID : 3
Format : PGS
Muxing mode : zlib
Codec ID : S_HDMV/PGS
Codec ID/Info : Picture based subtitle format used on BDs/HD-DVDs
Duration : 2 h 11 min
Bit rate : 5 822 b/s
Count of elements : 4262
Stream size : 5.48 MiB (0%)
Language : English
Default : No
Forced : No

Images, Screenshots Of Full Episodes

Some Images Of Deadpool 2 Super Duper Cut UNRATED Hindi Dubbed 720p BluRay + ESubs

Deadpool 2 Dual Audio [Hindi+English] 720p BluRay Movie Download

Deadpool 2 Dual Audio [Hindi+English] 720p BluRay Movie Download

Deadpool 2 Dual Audio [Hindi+English] 720p BluRay Movie Download

Deadpool 2 Dual Audio [Hindi+English] 720p BluRay Movie Download

Deadpool 2 Dual Audio [Hindi+English] 720p BluRay Movie Download

Deadpool 2 Dual Audio [Hindi+English] 720p BluRay Movie Download

Watch The Full HD 720p, 1080p Movie Trailers

Watch Deadpool 2 (2018) Movie Trailer

Free Download Deadpool 2 Super Duper Cut UNRATED [Hindi + English] 720p BluRay From Below Links

Free Download Direct Links HD

Direct Links For Premium Users

If you are the member of this site then enter your login details and Enjoy Direct Links

Leave a Reply

Your email address will not be published. Required fields are marked *

Check Also

The Choice Season 1 [ULLU] – Complete

The Choice Ullu Web Series 2019 Season 1 All Episodes Free Download In 720p WEB-Dl Quality…